Hey Guys ! Ads Are The Worst, Right? But Ads Give Us Revenue To Run The Site And For Other Stuff Like Encoding Severs/Seedboxes. Please Disable Yours Ad Blocker For This Site .This Will Consider Great Help.Thanks
Home » Wild Things 2 2004 720p Esub HD Dual Audio English Hindi

Wild Things 2 2004 720p Esub HD Dual Audio English Hindi


Format                         : Matroska
Format version                 : Version 4 / Version 2
File size                      : 528 MiB
Duration                       : 1 h 34 min
Overall bit rate               : 778 kb/s
Movie name                     : Wild Things 2 2004 GOPISAHIVideo
Format                         : AVC
Format settings, ReFrames      : 16 frames
Codec ID                       : V_MPEG4/ISO/AVC
Duration                       : 1 h 34 min
Bit rate                       : 600 kb/s
Width                          : 1 280 pixels
Height                         : 718 pixels
Display aspect ratio           : 16:9
Frame rate mode                : Constant
Frame rate                     : 23.976 (24000/1001) FPS
Stream size                    : 407 MiB (77%)
Writing library                : x264 core 155 r2893 b00bcaf

Audio #1
Format                         : AAC
Duration                       : 1 h 34 min
Bit rate                       : 88.2 kb/s
Channel(s)                     : 6 channels
Channel positions              : Front: L C R, Side: L R, LFE
Sampling rate                  : 44.1 kHz
Frame rate                     : 43.066 FPS (1024 SPF)
Stream size                    : 59.8 MiB (11%)
Title                          : GOPISAHI
Language                       : Hindi

Audio #2
Format                         : AAC
Duration                       : 1 h 34 min
Bit rate                       : 87.6 kb/s
Channel(s)                     : 6 channels
Channel positions              : Front: L C R, Side: L R, LFE
Sampling rate                  : 44.1 kHz
Frame rate                     : 43.066 FPS (1024 SPF)
Compression mode               : Lossy
Stream size                    : 59.4 MiB (11%)
Language                       : English

Text
Language                       : English

Loading...
Feb 12, 2018 - Posted by Gopi Sahi - No Comments

Leave a Reply

Your email address will not be published.