Hey Guys ! Ads Are The Worst, Right? But Ads Give Us Revenue To Run The Site And For Other Stuff Like Encoding Severs/Seedboxes. Please Disable Yours Ad Blocker For This Site .This Will Consider Great Help.Thanks
Home » Two Faces Of January 2014 720p Esub BluRay Dual Audio English Hindi

Two Faces Of January 2014 720p Esub BluRay Dual Audio English Hindi

Format                         : Matroska
Format version                 : Version 4 / Version 2
File size                      : 535 MiB
Duration                       : 1 h 36 min
Overall bit rate               : 774 kb/s
Movie name                     : Two Faces Of January 2014 GOPISAHIVideo
Format                         : AVC
Codec ID                       : V_MPEG4/ISO/AVC
Duration                       : 1 h 36 min
Bit rate                       : 600 kb/s
Width                          : 1 280 pixels
Height                         : 536 pixels
Display aspect ratio           : 2.40:1
Frame rate mode                : Constant
Frame rate                     : 23.976 (24000/1001) FPS
Stream size                    : 414 MiB (77%)
Writing library                : x264 core 155 r2893 b00bcaf

Audio #1
Format                         : AAC
Duration                       : 1 h 36 min
Bit rate                       : 84.4 kb/s
Channel(s)                     : 6 channels
Channel positions              : Front: L C R, Side: L R, LFE
Sampling rate                  : 44.1 kHz
Frame rate                     : 43.066 FPS (1024 SPF)
Stream size                    : 58.3 MiB (11%)
Language                       : English

Audio #2
Format                         : AAC
Duration                       : 1 h 36 min
Bit rate                       : 87.4 kb/s
Channel(s)                     : 6 channels
Channel positions              : Front: L C R, Side: L R, LFE
Sampling rate                  : 44.1 kHz
Frame rate                     : 43.066 FPS (1024 SPF)
Stream size                    : 60.4 MiB (11%)
Language                       : Hindi

Text
Language                       : English

Loading...
Feb 6, 2018 - Posted by Gopi Sahi - No Comments

Leave a Reply

Your email address will not be published.