Hey Guys ! Ads Are The Worst, Right? But Ads Give Us Revenue To Run The Site And For Other Stuff Like Encoding Severs/Seedboxes. Please Disable Yours Ad Blocker For This Site .This Will Consider Great Help.Thanks
Home » The Manchurian Candidate 2004 720p Esub BluRay Dual Audio English Hindi

The Manchurian Candidate 2004 720p Esub BluRay Dual Audio English Hindi

Format                         : Matroska
Format version                 : Version 4 / Version 2
File size                      : 724 MiB
Duration                       : 2 h 9 min
Overall bit rate               : 779 kb/s
Movie name                     : The Manchurian Candidate 2004 GOPISAHIVideo
Format                         : AVC
Codec ID                       : V_MPEG4/ISO/AVC
Duration                       : 2 h 9 min
Bit rate                       : 600 kb/s
Width                          : 1 280 pixels
Height                         : 720 pixels
Display aspect ratio           : 16:9
Frame rate mode                : Constant
Frame rate                     : 23.976 (24000/1001) FPS
Color space                    : YUV
Chroma subsampling             : 4:2:0
Bit depth                      : 8 bits
Scan type                      : Progressive
Bits/(Pixel*Frame)             : 0.027
Stream size                    : 557 MiB (77%)
Writing library                : x264 core 155 r2893 b00bcaf

Audio #1
Format                         : AAC
Duration                       : 2 h 9 min
Bit rate                       : 83.2 kb/s
Channel(s)                     : 6 channels
Channel positions              : Front: L C R, Side: L R, LFE
Sampling rate                  : 44.1 kHz
Frame rate                     : 43.066 FPS (1024 SPF)
Compression mode               : Lossy
Stream size                    : 77.3 MiB (11%)
Language                       : English

Audio #2
Format                         : AAC
Duration                       : 2 h 9 min
Bit rate                       : 93.6 kb/s
Channel(s)                     : 6 channels
Channel positions              : Front: L C R, Side: L R, LFE
Sampling rate                  : 44.1 kHz
Frame rate                     : 43.066 FPS (1024 SPF)
Compression mode               : Lossy
Stream size                    : 87.0 MiB (12%)
Language                       : Hindi

Text
Language                       : English

Loading...
Feb 12, 2018 - Posted by Gopi Sahi - No Comments

Leave a Reply

Your email address will not be published.