Hey Guys ! Ads Are The Worst, Right? But Ads Give Us Revenue To Run The Site And For Other Stuff Like Encoding Severs/Seedboxes. Please Disable Yours Ad Blocker For This Site .This Will Consider Great Help.Thanks
Home » Starsky and Hutch 2004 720p Esub BluRay Dual Audio English Hindi

Starsky and Hutch 2004 720p Esub BluRay Dual Audio English Hindi

Format                         : Matroska
Format version                 : Version 4 / Version 2
File size                      : 812 MiB
Duration                       : 1 h 40 min
Overall bit rate               : 1 130 kb/s
Movie name                     : Starsky and Hutch 2004 GOPISAHIVideo
Format                         : AVC
Codec ID                       : V_MPEG4/ISO/AVC
Duration                       : 1 h 40 min
Bit rate                       : 944 kb/s
Width                          : 1 280 pixels
Height                         : 528 pixels
Display aspect ratio           : 2.40:1
Frame rate mode                : Constant
Frame rate                     : 23.976 (24000/1001) FPS
Stream size                    : 678 MiB (83%)
Writing library                : x264 core 125 r2200 999b753Audio #1
Format                         : AAC
Duration                       : 1 h 40 min
Bit rate                       : 87.9 kb/s
Channel(s)                     : 6 channels
Channel positions              : Front: L C R, Side: L R, LFE
Sampling rate                  : 44.1 kHz
Frame rate                     : 43.066 FPS (1024 SPF)
Stream size                    : 63.2 MiB (8%)
Language                       : English

Audio #2
Format                         : AAC
Duration                       : 1 h 40 min
Bit rate                       : 96.0 kb/s
Channel(s)                     : 6 channels
Channel positions              : Front: L C R, Side: L R, LFE
Sampling rate                  : 44.1 kHz
Frame rate                     : 43.066 FPS (1024 SPF)
Stream size                    : 68.8 MiB (8%)
Language                       : Hindi

Text
Language                       : English

Loading...
Feb 6, 2018 - Posted by Gopi Sahi - No Comments

Leave a Reply

Your email address will not be published.