Hey Guys ! Ads Are The Worst, Right? But Ads Give Us Revenue To Run The Site And For Other Stuff Like Encoding Severs/Seedboxes. Please Disable Yours Ad Blocker For This Site .This Will Consider Great Help.Thanks
Home » Diamond Dog Caper 2008 720p HDTV RIP Hindi

Diamond Dog Caper 2008 720p HDTV RIP Hindi


Format                         : Matroska
Format version                 : Version 4 / Version 2
File size                      : 586 MiB
Duration                       : 1 h 47 min
Overall bit rate               : 762 kb/s
Movie name                     : Dog Gone 2008Video
Format                         : AVC
Codec ID                       : V_MPEG4/ISO/AVC
Duration                       : 1 h 47 min
Bit rate                       : 700 kb/s
Width                          : 1 280 pixels
Height                         : 720 pixels
Display aspect ratio           : 16:9
Frame rate mode                : Constant
Frame rate                     : 24.000 FPS
Stream size                    : 538 MiB (92%)
Writing library                : x264Audio
Format                         : AAC
Duration                       : 1 h 47 min
Bit rate                       : 60.4 kb/s
Channel(s)                     : 6 channels
Channel positions              : Front: L C R, Side: L R, LFE
Sampling rate                  : 44.1 kHz
Frame rate                     : 43.066 FPS (1024 SPF)
Compression mode               : Lossy
Stream size                    : 46.5 MiB (8%)
Language                       : Hindi

Loading...
Feb 6, 2018 - Posted by Gopi Sahi - No Comments

Leave a Reply

Your email address will not be published.