Hey Guys ! Ads Are The Worst, Right? But Ads Give Us Revenue To Run The Site And For Other Stuff Like Encoding Severs/Seedboxes. Please Disable Yours Ad Blocker For This Site .This Will Consider Great Help.Thanks
Home » Axe Giant The Wrath of Paul Bunyan 2013 720p Esub BluRay Dual Audio English Hindi

Axe Giant The Wrath of Paul Bunyan 2013 720p Esub BluRay Dual Audio English Hindi

Format                         : Matroska

Format version                 : Version 4 / Version 2
File size                      : 501 MiB
Duration                       : 1 h 30 min
Overall bit rate               : 778 kb/s
Movie name                     : Axe Giant The Wrath of Paul Bunyan 2013 GOPISAHI

Video
Format                         : AVC
Codec ID                       : V_MPEG4/ISO/AVC
Duration                       : 1 h 30 min
Bit rate                       : 600 kb/s
Width                          : 1 280 pixels
Height                         : 720 pixels
Display aspect ratio           : 16:9
Frame rate mode                : Constant
Frame rate                     : 23.976 (24000/1001) FPS
Stream size                    : 386 MiB (77%)
Writing library                : x264 core 155 r2893 b00bcaf

Audio #1
Format                         : AAC
Duration                       : 1 h 30 min
Bit rate                       : 90.0 kb/s
Channel(s)                     : 6 channels
Channel positions              : Front: L C R, Side: L R, LFE
Sampling rate                  : 44.1 kHz
Frame rate                     : 43.066 FPS (1024 SPF)
Compression mode               : Lossy
Stream size                    : 58.0 MiB (12%)
Language                       : Hindi

Audio #2
Format                         : AAC
Duration                       : 1 h 30 min
Bit rate                       : 85.6 kb/s
Channel(s)                     : 6 channels
Channel positions              : Front: L C R, Side: L R, LFE
Sampling rate                  : 44.1 kHz
Frame rate                     : 43.066 FPS (1024 SPF)
Compression mode               : Lossy
Stream size                    : 55.1 MiB (11%)
Language                       : English

Text
Language                       : English

Loading...
Feb 6, 2018 - Posted by Gopi Sahi - No Comments

Leave a Reply

Your email address will not be published.